Torrent Details

Photo Not Available
Avengers Infinity War 2018 720p WEB-DL x264 ESub [MW]
Size1.5 GB in 1 file
ReleasesAdded on 24.08.2018 at 23:55 into the Movies category by Unknown.
Status7 seeds & 5 peers.
Hash42f868905528004273757304fa8645782906ae19
Rating
  • YourBT Visitors

Status This torrent has been verified.
*

Torrent Description







General

Format                                   : Matroska

Format version                           : Version 4 / Version 2

File size                                : 1.53 GiB

Duration                                 : 2 h 29 min

Overall bit rate                         : 1 463 kb/s



Video

ID                                       : 1

Format                                   : AVC

Format/Info                              : Advanced Video Codec

Format profile                           : [email protected]

Format settings                          : CABAC / 5 Ref Frames

Format settings, CABAC                   : Yes

Format settings, RefFrames               : 5 frames

Codec ID                                 : V_MPEG4/ISO/AVC

Duration                                 : 2 h 29 min

Bit rate                                 : 1 400 kb/s

Width                                    : 1 280 pixels

Height                                   : 536 pixels

Display aspect ratio                     : 2.40:1

Frame rate mode                          : Constant

Frame rate                               : 23.976 (24000/1001) FPS

Color space                              : YUV

Chroma subsampling                       : 4:2:0

Bit depth                                : 8 bits

Scan type                                : Progressive

Bits/(Pixel*Frame)                       : 0.085

Stream size                              : 1.43 GiB (93%)

Writing library                          : x264 core 155 r2901 7d0ff22

Default                                  : Yes

Forced                                   : No



Audio

ID                                       : 3

Format                                   : AAC

Format/Info                              : Advanced Audio Codec

Format profile                           : HE-AAC / LC

Format settings                          : Explicit

Codec ID                                 : A_AAC-2

Duration                                 : 2 h 29 min

Bit rate                                 : 96.0 kb/s

Channel(s)                               : 2 channels

Channel positions                        : Front: L R

Sampling rate                            : 48.0 kHz / 24.0 kHz

Frame rate                               : 23.438 FPS (1024 SPF)

Compression mode                         : Lossy

Stream size                              : 101 MiB (6%)

Language                                 : English

Default                                  : Yes

Forced                                   : No



Text

ID                                       : 2

Format                                   : UTF-8

Codec ID                                 : S_TEXT/UTF8

Codec ID/Info                            : UTF-8 Plain Text

Duration                                 : 2 h 28 min

Bit rate                                 : 68 b/s

Count of elements                        : 2067

Stream size                              : 75.0 KiB (0%)

Language                                 : English

Default                                  : Yes

Forced                                   : No



Menu

00:00:00.000                             : en:Thanos Is Coming

00:11:28.021                             : en:Infinity Stones

00:18:14.010                             : en:Fight For The Time Stone

00:27:23.016                             : en:Who The Hell Are You Guys?

00:35:48.021                             : en:Wanda And Vision

00:42:23.041                             : en:Knowhere

00:54:11.999                             : en:Avengers Assemble

00:59:36.031                             : en:Take The Fight To Him

01:05:07.028                             : en:The Soul Stone

01:10:53.040                             : en:Nidavellir

01:17:07.081                             : en:Titan

01:24:14.049                             : en:Vormir

01:31:08.004                             : en:"Wakanda Forever"

01:42:00.031                             : en:Stormbreaker

01:45:57.017                             : en:Titan Confrontation

01:53:04.027                             : en:A Vision Situation

01:58:53.043                             : en:The Time Stone

02:03:58.014                             : en:The End Game

02:11:13.074                             : en:Aftermath

02:17:31.076                             : en:End Credits





Click To Enlarge Image



















Similar Torrents

No Similar Torrents Found

If we find similar torrents, we normally show them right here. We couldn't find anything for "".

Torrent Trackers

TRACKER URLSEEDSPEERS
Onlineudp://tracker.pirateparty.gr:6969/announce73
Onlineudp://tracker.coppersurfer.tk:6969/announce65
Onlineudp://tracker.opentrackr.org:1337/announce43
Onlineudp://tracker.open-internet.nl:6969/announce12

Files inside this torrent

FILENAMESIZE
icon Avengers Infinity War 2018 720p WEB-DL x264 ESub [MW].mkv1.5 GB