Torrent Details

Photo Not Available
Avengers - Infinity War (2018) 1080p Bluray Org Multi Audio 6 CH [English+Hindi+Telugu+Tamil] AC3 x264 Encoded By-RishiBhai[RDLinks]
Size6.6 GB in 14 files
ReleasesAdded on 24.08.2018 at 23:07 into the Movies category by Unknown.
Status22 seeds & 14 peers.
Hashc4b4fe9ee9c9049dadeaa2c6a6e77561045c3deb
Rating
  • YourBT Visitors

Status This torrent has been verified.
*

Torrent Description





Quote:General

Complete name                            : Avengers - Infinity War (2018) 1080p Bluray Org. Multi Audio 6.CH [English+Hindi+Telugu+Tamil] AC3 x264 Encoded By-RishiBhai[RDLinks].mkv

Format                                   : Matroska

Format version                           : Version 4 / Version 2

File size                                : 6.05 GiB

Duration                                 : 2 h 29 min

Overall bit rate                         : 5 799 kb/s

Movie name                               : Encoded & Released By-RishiBhai[RDLinks]

Encoded date                             : UTC 2018-08-17 16:45:18

Writing application                      : Lavf58.17.100

Writing library                          : Lavf58.17.100

ErrorDetectionType                       : Per level 1



Video

ID                                       : 1

Format                                   : AVC

Format/Info                              : Advanced Video Codec

Format profile                           : [email protected]

Format settings                          : CABAC / 2 Ref Frames

Format settings, CABAC                   : Yes

Format settings, RefFrames               : 2 frames

Codec ID                                 : V_MPEG4/ISO/AVC

Duration                                 : 2 h 29 min

Bit rate                                 : 4 000 kb/s

Width                                    : 1 920 pixels

Height                                   : 1 080 pixels

Display aspect ratio                     : 2.40:1

Frame rate mode                          : Constant

Frame rate                               : 23.976 (24000/1001) FPS

Color space                              : YUV

Chroma subsampling                       : 4:2:0

Bit depth                                : 8 bits

Scan type                                : Progressive

Bits/(Pixel*Frame)                       : 0.080

Stream size                              : 4.06 GiB (67%)

Writing library                          : x264 core 155 r2901

Encoding settings                        : cabac=1 / ref=2 / deblock=1:0:0 / analyse=0x1:0x131 / me=hex / subme=7 / psy=1 / psy_rd=1.00:0.00 / mixed_ref=0 / me_range=16 / chroma_me=1 / trellis=1 / 8x8dct=0 / cqm=0 / deadzone=21,11 / fast_pskip=1 / chroma_qp_offset=-2 / threads=6 / lookahead_threads=1 / sliced_threads=0 / nr=0 / decimate=1 / interlaced=0 / bluray_compat=0 / constrained_intra=0 / bframes=3 / b_pyramid=0 / b_adapt=1 / b_bias=0 / direct=0 / weightb=0 / open_gop=0 / weightp=2 / keyint=239 / keyint_min=23 / scenecut=40 / intra_refresh=0 / rc_lookahead=40 / rc=2pass / mbtree=1 / bitrate=4000 / ratetol=1.0 / qcomp=0.60 / qpmin=10 / qpmax=69 / qpstep=4 / cplxblur=20.0 / qblur=0.5 / vbv_maxrate=40500 / vbv_bufsize=24000 / nal_hrd=none / filler=0 / ip_ratio=1.40 / aq=3:1.00

Language                                 : English

Default                                  : Yes

Forced                                   : No



Audio #1

ID                                       : 2

Format                                   : AC-3

Format/Info                              : Audio Coding 3

Codec ID                                 : A_AC3

Duration                                 : 2 h 29 min

Bit rate mode                            : Constant

Bit rate                                 : 448 kb/s

Channel(s)                               : 1 channel

Channel positions                        : Front: C

Sampling rate                            : 44.1 kHz

Frame rate                               : 28.711 FPS (1536 SPF)

Bit depth                                : 16 bits

Compression mode                         : Lossy

Stream size                              : 478 MiB (8%)

Title                                    : RishiBhai

Writing library                          : Lavc58.19.104 ac3_fixed

Language                                 : English

Service kind                             : Complete Main

Default                                  : Yes

Forced                                   : No



Audio #2

ID                                       : 3

Format                                   : AC-3

Format/Info                              : Audio Coding 3

Codec ID                                 : A_AC3

Duration                                 : 2 h 29 min

Bit rate mode                            : Constant

Bit rate                                 : 448 kb/s

Channel(s)                               : 6 channels

Channel positions                        : Front: L C R, Side: L R, LFE

Sampling rate                            : 44.1 kHz

Frame rate                               : 28.711 FPS (1536 SPF)

Bit depth                                : 16 bits

Compression mode                         : Lossy

Stream size                              : 478 MiB (8%)

Title                                    : Hindi-RishiBhai

Writing library                          : Lavc58.19.104 ac3_fixed

Language                                 : Hindi

Service kind                             : Complete Main

Default                                  : No

Forced                                   : No



Audio #3

ID                                       : 4

Format                                   : AC-3

Format/Info                              : Audio Coding 3

Codec ID                                 : A_AC3

Duration                                 : 2 h 29 min

Bit rate mode                            : Constant

Bit rate                                 : 448 kb/s

Channel(s)                               : 6 channels

Channel positions                        : Front: L C R, Side: L R, LFE

Sampling rate                            : 44.1 kHz

Frame rate                               : 28.711 FPS (1536 SPF)

Bit depth                                : 16 bits

Compression mode                         : Lossy

Stream size                              : 478 MiB (8%)

Title                                    : Tamil-RishiBhai

Writing library                          : Lavc58.19.104 ac3_fixed

Language                                 : Tamil

Service kind                             : Complete Main

Default                                  : No

Forced                                   : No



Audio #4

ID                                       : 5

Format                                   : AC-3

Format/Info                              : Audio Coding 3

Codec ID                                 : A_AC3

Duration                                 : 2 h 29 min

Bit rate mode                            : Constant

Bit rate                                 : 448 kb/s

Channel(s)                               : 6 channels

Channel positions                        : Front: L C R, Side: L R, LFE

Sampling rate                            : 44.1 kHz

Frame rate                               : 28.711 FPS (1536 SPF)

Bit depth                                : 16 bits

Compression mode                         : Lossy

Stream size                              : 478 MiB (8%)

Title                                    : Telugui-RishiBhai

Writing library                          : Lavc58.19.104 ac3_fixed

Language                                 : Telugu

Service kind                             : Complete Main

Default                                  : No

Forced                                   : No



Text

ID                                       : 6

Format                                   : ASS

Codec ID                                 : S_TEXT/ASS

Codec ID/Info                            : Advanced Sub Station Alpha

Duration                                 : 2 h 28 min

Compression mode                         : Lossless

Writing library                          : Lavc58.19.104 ssa

Language                                 : English

Default                                  : No

Forced                                   : NoScreenshots:-























Quote:Uploader's Note:-

1)Thankfully I got the EXTRAS including Deleted & Extended and many more..

2)Encoded this movie in 1080p with good amount of details.

3)Lip to lip perfectly sync audio & video.

4)Always follow RishiBhai for quality torrents.

5)Seeding from the server 24x7(want to know more about the server included in the folder)

6)Always seed,comment & rate.

7)I hope you all will like it



Special thanks goes to

*CHDBits for video

*Tigole for EXTRAS

*Tamilrockers for Telugu & Tamil Audios

*Pyz for Hindi audio.



Similar Torrents

No Similar Torrents Found

If we find similar torrents, we normally show them right here. We couldn't find anything for "".

Torrent Trackers

TRACKER URLSEEDSPEERS
Onlineudp://tracker.coppersurfer.tk:6969/announce2214
Onlineudp://tracker.pirateparty.gr:6969/announce1912
Onlineudp://tracker.open-internet.nl:6969/announce711
Onlineudp://tracker.opentrackr.org:1337/announce68

Files inside this torrent

FILENAMESIZE
icon Avengers - Infinity War (2018) 1080p Bluray Org. Multi Audio 6.CH [English+Hindi+Telugu+Tamil] AC3 x264 Encoded By-RishiBhai[RDLinks].mkv6 GB
icon EXTRAS/Beyond the Battle - Titan.mkv110.4 MB
icon EXTRAS/Beyond the Battle - Wakanda.mkv127.3 MB
icon EXTRAS/Deleted and Extended Scenes.mkv97.9 MB
icon EXTRAS/Gag Reel.mkv23.9 MB
icon EXTRAS/Intro from Joe and Anthony.mkv17.7 MB
icon EXTRAS/Strange Alchemy.mkv76.3 MB
icon EXTRAS/The Mad Titan.mkv72.1 MB
icon EXTRAS/To play this type of file.txt120 B
icon Torrent Downloaded From 1337x.to.txt312 B
icon Torrent downloaded from bt-scene.cc.txt275 B
icon Torrent downloaded from katcr.co.txt30 B
icon Torrent seeded By evo-host.pw.txt184 B
icon [TGx]Downloaded from torrentgalaxy.org .txt691 B